<?xml version="1.0" standalone="no"?>
<!DOCTYPE svg PUBLIC "-//W3C//DTD SVG 1.1//EN" "http://www.w3.org/Graphics/SVG/1.1/DTD/svg11.dtd">
<svg xmlns="http://www.w3.org/2000/svg">
<metadata>Copyright (C) 2019 by original authors @ fontello.com</metadata>
<defs>
<font id="travelo" horiz-adv-x="1000" >
<font-face font-family="travelo" font-weight="400" font-stretch="normal" units-per-em="1000" ascent="850" descent="-150" />
<missing-glyph horiz-adv-x="1000" />
<glyph glyph-name="air-conditioning" unicode="&#xe800;" d="M853 599h-706c-5 0-9-3-9-9s3-9 9-9h705c5 0 9 3 9 9s-3 9-8 9z m0-64h-706c-5 0-9-4-9-10s3-9 9-9h705c5 0 9 3 9 9s-3 10-8 10z m-101-361c-3 4-8 5-12 3l-61-35v70c0 5-4 10-10 10s-9-4-9-10v-70l-61 35c-5 2-10 1-12-3s-1-10 4-12l61-35-61-36c-5-2-6-8-4-12 1-2 5-4 8-4 2 0 4 0 5 1l61 35v-70c0-5 4-10 10-10s9 4 9 10v70l61-35c1-1 3-1 5-1 3 0 6 1 8 4 3 5 1 10-3 12l-62 36 62 35c2 1 3 7 1 12z m-468-50c11 6 18 21 15 37l-12 54c-1 4-6 8-10 7-5-1-9-6-8-11l12-54c1-7-2-15-6-16-11-6-18-22-15-37l17-66c1-3 4-7 8-7 1 0 1 0 2 0 5 1 7 6 7 11l-16 66c-1 7 2 14 6 16z m101 0c12 6 19 21 15 37l-12 54c-1 4-6 8-10 7-5-1-9-6-7-11l11-54c2-7-2-15-5-16-12-6-19-22-16-37l17-66c1-3 4-7 8-7 1 0 1 0 2 0 5 1 7 6 7 11l-16 66c-1 7 2 14 6 16z m102 0c12 6 19 21 15 37l-11 54c-2 4-6 8-11 7-5-1-8-6-7-11l12-54c1-7-3-15-6-16-12-6-19-22-15-37l16-66c1-3 5-7 8-7 1 0 1 0 3 0 4 1 7 6 7 11l-17 66c-1 7 1 14 6 16z m-220 160h466c5 0 9 4 9 10s-3 9-9 9h-466c-5 0-9-4-9-9s4-10 9-10z m661 330c0 30-24 56-56 56h-744c-30 0-56-25-56-56l0-272c0-32 26-57 48-57l97 0c4 0 9 4 9 10v69c0 8 7 15 15 15h521c9 0 16-7 16-15v-69c0-5 3-10 9-10l97 0c22 0 48 25 48 57l-4 272z m-48-311l-87 0v60c0 18-14 33-33 33h-520c-18 0-33-14-33-33v-60l-87 0c-12 0-31 16-31 39l0 272c0 21 18 38 39 38h744c21 0 39-17 39-38l0-272c0-23-19-39-31-39z m-54 160c-8 0-15-7-15-15s7-16 15-16c8 0 15 7 15 16s-7 15-15 15z" horiz-adv-x="1000" />

<glyph glyph-name="breakfast" unicode="&#xe801;" d="M865 89h-157c-4 0-9-4-9-10s3-9 9-9h157c4 0 9 4 9 9s-5 10-9 10z m-244 55l-3 4c15 24 14 43 14 44-1 25-25 50-25 50-41 49-113 43-122 43-1 19-5 30-6 31 0 0 0 0 0 1-25 51-98 57-119 57-21 0-94-6-119-58-1-1-14-38 4-87l74-197c-7-9-15-15-24-16-16-2-31 8-31 8 0 0 0 0 0 0l-138 120c-22 26-21 46-21 47 1 16 15 33 21 40 15 18 36 30 63 34 5 2 9 6 8 11-2 5-6 8-11 7-32-6-57-20-74-40-1-1-24-26-26-49 0-2-1-20 14-45l-1-5c-2-2-54-61-57-115-3-19 2-58 36-64 1 0 8-2 20-2 26 0 76 7 139 52l4 3 11-9c1 0 16-13 37-13 3 0 5 0 9 1 10 1 20 7 28 15l1-3c2-8 12-25 33-26 25 1 32 25 33 25l1 3c8-8 18-13 28-15 3 0 6-1 9-1 20 0 36 12 37 13l11 9 5-3c63-45 113-52 138-52 12 0 19 1 20 2 36 6 39 44 37 63-4 56-55 115-58 117z m-394-114c-86-60-145-47-146-47-27 5-22 41-21 44 2 49 52 104 52 105l1 2c0 0 1-2 1-2l113-102 0 0z m148-15c0-1-4-13-15-13-12 1-15 12-15 14l-84 220c-15 42-3 74-3 74 21 42 89 47 102 47 19 0 82-5 104-47 1-3 10-34-4-74l-85-221z m82 9c0 0-16-12-32-8-10 1-17 7-24 16l76 198c4 14 7 27 8 39l2 1c1 0 70 7 107-38 6-5 20-23 20-38 0-2 1-22-20-46l-137-124z m182-41c0 0-59-14-146 47l-1 1 115 101c0 0 0 0 0 2l1-2c0 0 50-56 52-107 1-1 6-37-21-42z m233 444c-11 0-20-2-30-5v72c0 4-3 9-9 9h-395c-5 0-10-4-10-9v-91c0-5 4-9 10-9s9 3 9 9v81h379v-247c0-40-33-74-74-74h-79c-5 0-9-4-9-9s3-10 9-10h79c50 0 92 41 92 92v31c9-4 18-5 29-5 48 0 87 36 87 81-1 47-40 84-88 84z m0-146c-11 0-20 2-30 6v115c10 3 19 6 30 6 37 0 69-29 69-64 0-34-30-63-69-63z m-272 360h72c10 0 20-10 20-22 0-11-10-21-20-21h-32c-21 0-38-16-38-37v-5c0-5 4-9 10-9s9 3 9 9v5c0 10 10 20 20 20h32c20 0 38 17 38 38 0 22-18 39-38 39h-73c-15 0-28 14-28 30 0 16 13 29 28 29h160c5 0 9 4 9 10s-4 9-9 9h-160c-25 0-46-22-46-47 0-26 21-48 46-48z" horiz-adv-x="1000" />

<glyph glyph-name="cars" unicode="&#xe802;" d="M952 296c-10 78-210 148-243 160l-111 128c-1 1-3 3-4 3-147 47-327-5-334-8-174-40-196-156-198-161 0 0 0-1 0-1l0-90c-44-99 12-140 38-153 1-2 2-2 4-2 3 0 5 3 8 5 2 5 0 10-4 12-27 14-67 48-29 132 0 1 1 2 1 3l0 92c2 11 27 111 185 147 1 0 54 15 126 22v-143h-198c-5 0-9-4-9-10s3-9 9-9h553c0 0 0 0 0 0 74-29 182-82 188-131 0 0 13-55-25-88 0 0-8-6-18-8-5-1-9-6-7-11 1-4 5-8 10-7 15 3 26 11 27 12 46 41 32 105 31 106z m-544 291c57 3 120 2 179-16l112-128c0 0 1-1 1-1h-292v145z m340-318c-48 0-87-39-87-87 0 0 0 0 0-1h-329c0 0 0 0 0 1 0 48-39 87-87 87s-87-39-87-87 39-87 87-87c42 0 76 29 86 69h333c8-39 43-69 85-69 49 0 88 39 88 87 0 48-40 87-89 87z m-503-158c-39 0-70 32-70 70s32 69 70 69 69-32 69-69c0-3 0-5 0-6 0-1-1-3-1-4 0 0 0 0 0-1-5-33-34-59-68-59z m503 0c-39 0-69 32-69 70 0 38 32 69 69 69 39 0 70-32 70-69 1-38-31-70-70-70z" horiz-adv-x="1000" />

<glyph glyph-name="children" unicode="&#xe803;" d="M862-25c-224 57-241 96-242 100 0 0 0 0 0 0 0 0 0 39 0 72 71 56 92 154 97 174 25 18 41 41 44 66 6 38-20 69-21 70-1 1-1 1-2 2 3 22-3 44-5 55 0 1 0 2-1 3 3 78-6 134-7 137-14 63-74 104-128 113-26 3-50 9-68 14 0 0 0 0 0 1 0 13-14 23-30 23-18 0-31-10-31-23 0 0 0-1 0-1-17-5-41-11-67-14-53-8-114-49-128-113 0-3-12-60-7-139 0-1 0-3-1-4-3-10-8-30-5-50-1 0-2-2-2-3-1-1-26-31-21-70 3-25 18-47 44-66 4-20 26-118 97-174v-74c0 0 0-2 0-2 0 0-13-40-243-97-4-2-7-6-6-11 2-3 5-7 9-7 1 0 1 0 2 0 98 25 158 47 195 65 33-85 86-125 164-125h2c79 0 132 41 163 125 37-18 97-40 195-65 1 0 1 0 2 0 4 0 7 2 8 7 2 5-2 9-7 11z m-581 522c18 17 194 166 437 5 6-30 8-61-23-71 0 0-1 0-1 0 0 0-27-12-83 33-2 1-40 31-112 31-72 0-111-30-112-31-58-42-83-33-83-33 0 0-2 0-2 0-27 10-27 37-21 66z m11 152c12 56 66 92 113 99 44 6 84 19 95 22 11-3 51-16 95-22 47-7 102-43 113-99 0 0 10-53 7-125-213 134-380 35-430-2-3 72 7 127 7 127z m8-322c0 2-1 4-3 5-24 17-38 36-40 56-4 21 5 40 11 50 6-10 16-19 31-23 6-3 38-11 101 35 0 0 37 27 101 27 65 0 101-26 101-26 40-32 67-39 85-39 10 0 14 3 17 4 15 5 24 14 30 23 6-9 15-28 12-50-5-21-18-40-42-57-3-1-4-3-4-5 0-3-33-205-200-205-43 0-78 13-105 33-1 1-2 2-3 2-74 59-91 164-92 170z m347-298c-28-79-74-116-146-116h-2c-72 0-118 37-146 116 0 0 0 0 0 1 40 22 45 38 45 45v59c27-18 61-30 103-30 41 0 76 12 103 28 0-27 0-55 0-58-2-6 3-22 43-45 0 1 0 1 0 0z m-189 185c13-6 28-9 42-9 14 0 29 3 42 9 5 2 7 7 5 11-2 5-7 7-12 5-22-9-48-9-71 0-5 2-10 0-12-5-1-4 1-10 6-11z" horiz-adv-x="1000" />

<glyph glyph-name="comment" unicode="&#xe804;" d="M314 532h371c4 0 9 4 9 10s-3 9-9 9h-371c-5 0-9-3-9-9s4-10 9-10z m0-98h371c4 0 9 3 9 9s-3 9-9 9h-371c-5 0-9-3-9-9s4-9 9-9z m206-83h-206c-5 0-9-3-9-9s3-10 9-10h205c5 0 9 4 9 10s-3 9-8 9z m237 332h-513c-38 0-69-31-69-68v-358c0-38 31-68 69-68h73v-165c0-3 2-7 5-8 2 0 3 0 4 0 2 0 5 1 7 2l156 174c4 4 4 10-1 13-3 4-9 4-13-1l-141-155v150c0 5-3 10-9 10h-81c-27 0-51 22-51 50v357c0 27 22 51 51 51h511c27 0 51-23 51-51v-358c0-27-22-50-51-50h-191c-5 0-10-4-10-10s4-9 10-9h191c38 0 69 30 69 68v359c0 38-31 67-67 67z" horiz-adv-x="1000" />

<glyph glyph-name="days" unicode="&#xe805;" d="M500 684c-185 0-334-149-334-334 0-185 151-334 334-334 185 0 334 149 334 334 0 185-149 334-334 334z m8-650c0 0 1 0 0 0l0 81c0 4-3 9-9 9s-10-3-10-9v-81c0 0 0 0 0-2-165 6-301 142-305 309h80c4 0 9 3 9 9s-4 9-9 9h-80c4 168 140 303 308 308 0 0 0 0 0-2v-81c0-5 3-9 9-9s10 3 10 9v81c0 0 0 0 0 2 166-5 301-140 306-309-2 0-2 0-3 0h-81c-5 0-9-3-9-9s3-10 9-10h81c1 0 1 0 3 0-5-165-140-301-309-305z m154 460l-161-163-103 98c-4 3-10 3-13 0-4-4-4-10 0-13l109-104c1-1 4-2 6-2 2 0 5 1 6 2l168 169c4 3 4 9 0 13s-8 2-12 0z" horiz-adv-x="1000" />

<glyph glyph-name="doorman" unicode="&#xe806;" d="M639 501c3 31 5 67-2 98l-9 95c0 17-15 31-33 31h-191c-18 0-32-14-33-30l-9-100c-5-30-3-64-1-93 10-100 73-185 139-185 66 0 129 84 139 184z m-18 88c4-19 4-39 3-59-38 4-70 24-80 31 10 11 15 23 16 27h61z m-233 105c0 8 7 14 16 14h191c9 0 16-7 16-16l7-85h-237l7 87z m112-359c-55 0-113 79-121 168-2 27-5 59 0 86h161c-8-17-36-55-111-55-4 0-9-4-9-10s4-9 9-9c50 0 82 15 102 33 9-7 46-33 91-37 0-3 0-7-1-10-8-87-66-166-121-166z m-32-74c-44 13-73 67-73 67-2 3-6 6-9 4-4-1-7-4-7-8v-52c-58-10-112-24-112-24-2 0-59-12-72-105l-10-158c0-4 3-9 8-9 0 0 0 0 0 0 5 0 8 3 8 8l11 158c10 79 55 89 57 89 0 0 59 17 119 26 0 0 1 0 1 0 0 0 2 0 2 0 0 0 1 1 1 1 0 0 1 1 1 1 0 0 1 2 1 2 0 0 0 1 1 1 0 0 0 1 0 1 0 0 0 1 0 1v30c13-18 34-39 62-49v-34c0-4 3-9 9-9s9 3 9 9v40c0 5-2 8-7 10z m337-118c-13 93-70 104-71 105 0 0-55 15-113 24v52c0 4-2 7-7 8-3 2-8-1-9-4 0 0-28-54-73-67-4-2-6-5-6-9v-40c0-4 3-9 9-9s10 4 10 9v35c27 10 48 31 61 48v-30c0 0 0-1 0-1 0-1 0-1 0-2 0 0 0-1 1-1 0 0 1-2 1-2 0 0 1-1 1-1 0 0 2-1 2-1 0 0 1 0 1 0 0 0 1 0 1 0 60-9 118-26 119-26 0 0 46-9 56-88l11-158c0-4 5-8 8-8 0 0 0 0 0 0 5 0 8 5 8 9l-10 157z m-408-8c-10 0-18-8-18-18s8-18 18-18 17 9 17 18-7 18-17 18z m0-97c-10 0-18-8-18-17s8-18 18-18 17 8 17 18-7 17-17 17z m207 97c-10 0-18-8-18-18s8-18 18-18 17 9 17 18-8 18-17 18z m0-97c-10 0-18-8-18-17s8-18 18-18 17 8 17 18-8 17-17 17z" horiz-adv-x="1000" />

<glyph glyph-name="cruises" unicode="&#xe807;" d="M988 368c-1 3-4 4-8 6-5 0-495 17-872-98-2 0-3-2-4-4-2-1-17-23-36-71-2-5 0-10 5-12 5-2 9 0 12 5 15 37 28 58 32 65 331 100 749 98 843 97-25-27-85-91-160-160-3-4-3-9 0-13 1-2 4-2 6-2 2 0 5 1 6 2 101 94 174 175 174 175 3 3 3 6 2 10z m-881 80l126-13c4-8 13-40-16-78-4-3-3-9 1-13 1-1 3-2 6-2 2 0 4 1 7 3 29 37 26 70 22 87l45-4c4 0 9 3 9 8 0 5-3 9-8 9l-145 14c131 36 275 57 278 57 61 8 122-6 174-26-97-5-207-25-208-26-3 0-5-2-6-5-1-2-1-5 0-8l26-54c1-3 4-5 8-5 0 0 1 0 1 0 73 12 234 27 311 27 3 0 7 3 8 6 1 4 0 7-4 10-49 35-178 115-311 96-2 0-83-12-178-32l-55 70c-4 3-9 5-13 1s-5-8-1-13l50-63c-42-10-87-22-127-33-3-2-7-5-6-10s3-3 6-3z m537 27c25-13 48-26 64-37-81-3-210-15-279-26l-17 38c35 6 147 24 232 25 0 0 0 0 0 0z m260-304c-95-69-163-3-166 0-4 4-9 4-12 1-95-69-164-3-167-1-4 4-8 4-12 1-95-69-163-3-167-1-3 4-8 4-12 1-95-69-163-3-167-1-3 4-8 4-12 1-91-70-161-4-163-1-4 4-9 4-13 0-4-3-4-9 0-13 0 0 36-36 93-36 26 0 58 8 91 30 20-15 89-61 177 0 20-15 90-61 178 0 20-15 89-61 177 0 20-16 91-62 182 3 3 1 6 4 6 8 2 8-8 13-13 8z m-96 119c0 9-8 18-17 18s-18-9-18-18 8-18 18-18 17 7 17 18z m-148-9c0 9-8 17-18 17s-17-8-17-17 8-18 17-18 18 8 18 18z" horiz-adv-x="1000" />

<glyph glyph-name="elevator" unicode="&#xe808;" d="M365 423c29 0 54 24 54 54s-24 54-54 54-54-23-54-54 23-54 54-54z m0 89c20 0 36-16 36-36s-16-37-36-37-37 17-37 37 17 36 37 36z m35-127h-72c-20 0-39-16-40-36l-11-121c-3-19 14-33 31-40l4-154c0-5 5-10 9-9 5 0 8 5 8 10l-3 160c0 3-2 7-6 8-13 5-26 15-26 25l12 121c1 12 12 21 22 21h72c12 0 21-9 22-21l12-121c1-10-12-20-26-25-3-1-6-5-6-8l-2-161c0-5 4-10 8-10 0 0 0 0 0 0 5 0 9 4 9 8l3 155c17 7 33 21 32 40l-12 121c-1 21-20 37-40 37z m217 37c29 0 54 23 54 54s-24 54-54 54c-30 0-55-23-55-54s25-54 55-54z m0 90c20 0 36-16 36-36s-16-37-36-37c-20 0-37 17-37 37s17 36 37 36z m63-156c0 1 0 1 0 2-6 18-19 27-39 27h-50c-19 0-33-9-39-27 0-1 0-1 0-2 0-1-7-97-44-184-1-2-1-5 1-8 2-2 5-3 8-3h49l8-127c0-5 5-9 10-9 4 0 8 5 8 10l-8 135c0 5-5 8-9 8h-46c32 83 39 165 40 176 4 9 11 14 22 14h50c12 0 18-5 21-14 2-11 9-95 40-176h-44c-5 0-9-3-9-8l-8-135c0-5 4-10 8-10 0 0 0 0 0 0 5 0 9 4 9 9l8 127h49c4 0 6 1 7 3 2 3 3 6 2 8-36 87-44 183-44 184z m48 253h-456c-38 0-68-31-68-68v-522c0-37 30-68 68-68h456c38 0 69 31 69 68v523c-2 36-32 67-69 67z m50-588c0-28-23-51-51-51h-455c-27 0-51 22-51 51v521c0 27 23 50 51 50h456c27 0 51-22 51-50v-521z m-456 643c3 0 5 1 6 3l69 60 68-60c3-4 9-3 13 1 3 3 2 9-1 13l-75 63c-3 3-8 3-11 0l-74-65c-4-3-4-8-2-12 3-2 5-3 7-3z m276 3c1-2 3-3 6-3s4 1 5 3l75 64c3 4 3 8 1 13-4 4-8 4-13 1l-68-60-67 59c-4 4-10 3-13-1-4-4-3-9 1-13l73-63z" horiz-adv-x="1000" />

<glyph glyph-name="entertainment" unicode="&#xe809;" d="M821 281c-4 0-9-4-9-10v-90c0-27-23-51-51-51h-581c-27 0-51 22-51 51v358c0 28 23 51 51 51h468c5 0 10 4 10 9s-4 10-10 10h-468c-38 0-68-31-68-68v-359c0-38 30-68 68-68h233v-77h-84c-4 0-9-3-9-9s4-10 9-10h285c5 0 10 4 10 10s-4 9-10 9h-85v77h233c38 0 69 30 69 68v90c-2 5-5 9-10 9z m-309-244h-81v77h81v-77z m367 644h-181c-5 0-10-4-10-10v-353c0-4 4-9 10-9h180c4 0 9 3 9 9v353c0 6-3 10-8 10z m-10-353h-162v335h162v-335z m-115 195h8c5 0 10 4 10 9v9c0 4-4 9-10 9h-8c-5 0-9-3-9-9v-9c0-5 4-9 9-9z m61 0h9c4 0 9 4 9 9v9c0 4-4 9-9 9h-9c-4 0-9-3-9-9v-9c0-5 5-9 9-9z m-61-67h8c5 0 10 3 10 9v9c0 4-4 9-10 9h-8c-5 0-9-4-9-9v-9c0-4 4-9 9-9z m61 0h9c4 0 9 3 9 9v9c0 4-4 9-9 9h-9c-4 0-9-4-9-9v-9c0-4 5-9 9-9z m-61-66h8c5 0 10 4 10 9v9c0 4-4 9-10 9h-8c-5 0-9-3-9-9v-9c0-4 4-9 9-9z m61 0h9c4 0 9 4 9 9v9c0 4-4 9-9 9h-9c-4 0-9-3-9-9v-9c0-4 5-9 9-9z m-650-178c0-4 3-9 9-9h597c4 0 9 4 9 9s-3 10-9 10h-598c-5 0-8-5-8-10z" horiz-adv-x="1000" />

<glyph glyph-name="fitness-facility" unicode="&#xe80a;" d="M580 387l-151-151-43 43 151 151c3 4 3 9 0 13s-10 4-13 0l-150-152-101 101c-11 11-25 17-40 17-15 0-29-6-40-17l-5-3c-10-11-16-25-16-40 0-15 6-30 16-40l27-27c-14 0-28-6-37-17l-5-3c-11-11-16-25-16-40s5-30 16-40l46-46-46-46c-1-1-2-3-2-6s1-5 2-6l55-55c1-1 4-2 6-2s5 1 6 2l46 46 46-46c10-11 25-16 40-16s29 5 40 16l5 5c10 10 15 24 16 37l27-27c11-10 25-16 40-16 15 0 29 6 40 16l5 5c10 11 16 25 16 40 0 15-6 29-16 40l-101 101 150 151c4 3 4 9 0 13s-10 2-14-1z m-346-345l-43 43 40 40 43-43-40-40z m170-3l-5-4c-14-14-40-14-54 0l-105 104c0 2-1 3-2 4-1 1-3 1-4 2l-49 50c-7 7-11 16-11 27s4 20 11 27l4 5c8 7 17 10 28 10s20-3 27-10l160-160c15-15 15-39 0-55z m138 44c0-11-3-20-11-27l-5-5c-14-14-40-14-54 0l-271 271c-7 7-10 16-10 27 0 10 3 20 10 27l5 5c7 7 16 10 27 10s20-3 27-10l105-105c0-1 1-2 2-4s2-2 4-2l50-51c0-1 1-1 1-2 2-1 2-1 3-1l106-106c7-7 11-18 11-27z m243 334c14 0 27 6 37 17l5 4c22 23 22 58 0 79l-46 46 46 46c1 1 2 3 2 6 0 2-1 4-2 6l-55 55c-4 3-10 3-13 0l-46-46-46 46c-10 11-25 16-40 16-15 0-29-5-40-16l-5-5c-10-10-15-23-16-37l-26 28c-11 10-25 16-40 16-15 0-29-6-40-16l-5-5c-22-22-22-58 0-79l271-270c11-11 25-17 40-17s29 6 40 17l5 4c10 11 16 25 16 40 0 16-6 30-16 40l-26 25z m-19 241l43-43-40-40-43 43 40 40z m-169 3l4 4c14 14 40 14 54 0l160-160c16-15 16-38 0-54l-4-4c-16-16-39-16-54 0v0l-160 160c-8 7-11 16-11 27s3 18 11 27z m202-337l-5-5c-14-14-40-14-54 0l-271 271c-15 15-15 39 0 54l5 5c7 7 17 10 27 10 11 0 20-3 27-10l271-271c7-7 10-16 10-27 2-10-3-20-10-27z" horiz-adv-x="1000" />

<glyph glyph-name="flights" unicode="&#xe80b;" d="M293 610l107-62c1-1 2-1 5-1 3 0 6 1 7 4 2 5 1 10-4 12l-87 51c84 13 179-12 231-29 5-1 9 2 10 6 2 5-1 10-5 11-58 19-170 47-263 25-3-2-6-4-7-8 1-3 2-7 6-9z m689-42c0 1-1 2-1 2-7 8-20 17-36 24-67 29-187-2-192-3l-535-135-183 72c-3 1-6 1-9-1l-11-10c-2-1-3-3-3-6 0-2 0-4 2-6l104-123-79-21c-2-2-5-3-6-5-1-2-1-5-1-7l7-25c1-2 3-5 6-6 134-43 343 1 353 4l49 12-86-237c-1-2-1-5 0-7 0-1 10-22 34-26 3 0 5 0 7 0 30 0 65 25 107 75l178 253 250 66c18 5 32 17 42 34 12 25 10 57 3 76z m-20-67c-7-13-17-22-30-25l-252-66c-2 0-3-1-5-3l-180-257c-53-63-83-69-97-67-11 1-17 8-19 13l90 248c2 4 0 7-1 10-2 1-6 2-9 2l-65-15c-2 0-208-45-339-5l-3 12 83 22c3 1 5 4 6 6 1 2 0 6-1 8l-107 125 0 0 180-71c1-1 4-1 6 0l538 136c1 0 118 30 180 4 5-2 11-6 16-8l-85-21c-4-1-7-6-6-11 2-3 5-7 9-7 1 0 1 0 2 0l94 24c5-16 4-38-5-54z" horiz-adv-x="1000" />

<glyph glyph-name="flight-search" unicode="&#xe80c;" d="M320 458l79-46c1-1 3-1 5-1 3 0 5 1 7 5 2 5 1 9-4 12l-59 34c70 10 139-10 169-20 4-1 9 1 11 6 1 4-1 9-6 11-33 12-118 36-200 16-3-1-5-4-7-7 0-4 2-7 5-10z m585-34c-4 10-16 18-40 28-51 23-146-2-150-2l-461-115-146 56c-3 1-6 1-9-1l-10-7c-3-4-4-8-1-13l83-96-62-17c-2-1-4-2-5-5-2-2-2-4-2-7l7-18c2-3 4-5 6-6 110-36 278 1 285 2l44 11-69-187c-1-3-1-5 0-8 0-1 9-18 30-22 2 0 3 0 6 0 23 0 53 20 87 61l142 204 241 62c12 4 21 11 26 20 11 23 1 52-2 60z m-13-52c-3-5-8-9-15-11l-245-64c-3 0-4-1-5-3l-143-205c-43-51-66-55-77-54-7 1-12 6-14 8l73 199c1 3 0 7-1 9-3 3-6 4-8 3l-59-15c-1 0-167-35-272-4l-2 7 65 17c3 2 5 4 6 6 2 3 0 6-1 9l-82 97 140-55c1-1 3-1 6 0l463 116c1 0 93 24 138 4 8-4 14-7 19-9l-69-18c-4-1-7-6-5-11 1-3 4-7 8-7 1 0 1 0 2 0l78 20c2-12 5-28 0-39z m-184-442h-519c-4 0-9-4-9-9s4-10 9-10h520c5 0 10 4 10 10s-6 9-11 9z m-48 725c0 0 0 0 0 0 0-33 27-59 59-59 0 0 0 0 0 0 33 0 59 27 59 60 0 33-27 59-59 59 0 0 0 0 0 0-15 0-31-6-42-18-11-12-17-27-17-42z m31 29c8 8 18 12 29 12 0 0 0 0 0 0 22 0 41-19 41-41 0-24-19-41-41-43 0 0 0 0 0 0-22 0-41 19-41 42-1 13 3 22 12 30z m-19-122l-11-26c-2-5 0-9 5-12 1 0 2-1 3-1 4 0 8 2 9 6l10 26c3 4 0 9-4 12-5 1-10 0-12-5z m85 182c1 0 2-1 3-1 4 0 7 2 8 6l11 26c2 4 0 9-5 12-5 2-9 0-12-5l-11-26c-2-5 1-11 6-12z m-137-121l-26-11c-5-2-7-7-5-11 2-4 5-6 9-6 1 0 2 0 3 1l26 11c5 2 7 7 5 11-3 5-7 6-12 5z m197 64c1 0 2 0 3 1l26 10c5 3 7 7 5 12-3 5-7 7-12 5l-26-11c-5-2-7-7-5-12 1-3 5-5 9-5z m-224 10l26-10c1 0 2-2 3-2 4 0 7 3 9 6 2 5 0 10-5 12l-26 11c-5 2-9 0-12-5-1-5 0-10 5-12z m253-85l-26 11c-5 2-9 0-12-5-2-4 0-9 5-11l26-11c1 0 2-1 3-1 4 0 7 2 9 6 2 4 0 10-5 11z m-88-45c-5-3-7-8-5-12l11-26c1-4 4-6 8-6 1 0 2 0 3 1 5 3 7 7 5 12l-11 26c-2 5-8 7-11 5z m-87 181c1-4 4-6 8-6 1 0 2 0 3 1 5 2 7 7 5 12l-10 26c-3 4-8 7-12 4-5-2-7-7-5-11l11-26z" horiz-adv-x="1000" />

<glyph glyph-name="grid" unicode="&#xe80d;" d="M274 791h-190c-16 0-27-12-27-27v-189c0-16 12-28 28-28h189c15 0 27 12 27 28v189c0 15-12 27-27 27z m315 0h-190c-15 0-28-13-28-28v-189c0-16 11-29 28-29h189c16 0 29 13 29 29v190c0 15-12 27-28 27z m328 0h-190c-15 0-28-13-28-28v-189c0-16 13-29 28-29h190c15 0 28 13 28 29v190c-1 15-13 27-28 27z m-643-315h-190c-16 0-29-13-29-28v-190c0-15 13-28 29-28h189c15 0 27 13 27 28v191c1 15-11 27-26 27z m315 0h-190c-15 0-28-13-28-28v-190c0-15 11-28 28-28h189c16 0 29 13 29 28v191c0 15-12 27-28 27z m328 0h-190c-15 0-28-13-28-28v-190c0-15 13-28 28-28h190c15 0 28 13 28 28v191c-1 15-13 27-28 27z m-643-322h-190c-16 0-29-12-29-29v-189c2-15 13-27 29-27h189c15 0 27 13 27 28v190c1 15-11 27-26 27z m315 0h-190c-15 0-28-12-28-29v-189c0-15 11-28 28-28h189c16 0 29 13 29 28v191c0 15-12 27-28 27z m328 0h-190c-15 0-28-12-28-29v-189c0-15 13-28 28-28h190c15 0 28 13 28 28v191c-1 15-13 27-28 27z" horiz-adv-x="1000" />

<glyph glyph-name="honeymoon" unicode="&#xe80e;" d="M917 701c-100 100-265 98-368-4l-49-49-49 49c-103 102-267 104-369 4-100-102-97-266 5-369l404-402c2-2 7-5 10-5 4 0 7 1 11 5l401 402c102 103 105 267 4 369z m-24-347l-393-392-393 392c-90 90-93 237-3 325 43 44 101 66 160 66 60 0 120-23 165-69l60-60c3-2 8-5 11-5 0 0 0 0 0 0 4 0 7 1 11 5l60 60c90 91 237 93 326 3 88-89 87-235-4-325z m-220 150c-38 0-71-26-81-62-3-8 2-17 10-18 2 0 3 0 4 0 7 0 13 5 14 11 6 23 28 41 52 41 25 0 46-17 52-41 2-8 10-13 17-11 8 3 13 11 11 18-7 36-40 62-79 62z m-280-81c1 0 2 0 4 0 8 2 12 11 10 18-9 36-42 62-81 62-38 0-72-26-81-62-3-9 2-17 10-18 9-2 17 2 18 11 6 23 28 41 52 41s46-17 52-41c4-6 10-11 16-11z m226-105c-7 4-17 1-20-4-1-3-30-50-95-50-2 0-3 0-4-1-1 0-2 1-3 1-66 0-95 47-96 50-3 7-13 9-20 5-7-3-9-12-6-20 2-2 38-63 122-63 1 0 2 0 3 1 1 0 2-1 4-1 83 0 120 61 121 63 3 6 1 15-6 19z" horiz-adv-x="1000" />

<glyph glyph-name="hotel" unicode="&#xe80f;" d="M926 225c-15 87-62 236-141 236-85 0-133-176-143-237-8-48 3-89 29-122 24-30 63-48 104-52l0-91h-283v115h93c4 0 9 3 9 9s-3 9-9 9h-100c0 0-1 0-1 0s-2 0-2 0h-124c0 0-1 0-1 0s-2 0-2 0h-100c-4 0-9-3-9-9s3-9 9-9h93v-115h-194v738c0 24 19 42 43 42h444c24 0 43-18 43-42v-206c0-4 3-9 9-9s9 3 9 9v206c0 33-27 60-60 60h-445c-33 0-60-27-60-60v-738h-57c-5 0-9-3-9-8s3-9 9-9h766c5 0 9 3 9 9s-3 10-9 10h-53l0 89c42 1 80 19 105 47 27 31 37 75 28 128z m-561-151h109v-115h-109v115z m520 34c-21-25-56-39-92-40l0 88 55 40c4 2 5 8 3 12-3 3-9 4-12 2l-45-33 0 139c0 5-3 9-9 9s-10-3-10-9l0-139-46 33c-3 2-9 2-11-2-3-4-3-10 2-12l55-40 0-87c-36 3-69 20-90 46-24 28-32 64-25 108 14 89 65 222 125 222 62 0 108-131 123-221 9-49 0-89-23-116z m-300 516h-332c-5 0-9-3-9-9s3-10 9-10h332c4 0 9 4 9 10s-3 9-9 9z m0-133h-332c-5 0-9-3-9-9s3-10 9-10h332c4 0 9 4 9 10s-3 9-9 9z m0-133h-332c-5 0-9-3-9-9s3-10 9-10h332c4 0 9 4 9 10s-3 9-9 9z m0-133h-332c-5 0-9-3-9-9s3-9 9-9h332c4 0 9 3 9 9s-3 9-9 9z" horiz-adv-x="1000" />

<glyph glyph-name="hotels" unicode="&#xe810;" d="M751 441h-218c-5 0-9-4-9-10s3-9 9-9h218c4 0 9 3 9 9s-5 10-9 10z m0-106h-218c-5 0-9-4-9-10s3-9 9-9h218c4 0 9 3 9 9s-5 10-9 10z m0-106h-218c-5 0-9-4-9-10s3-9 9-9h218c4 0 9 4 9 9s-5 10-9 10z m0-212h-218c-5 0-9-3-9-9s3-10 9-10h218c4 0 9 4 9 10s-5 9-9 9z m0-106h-218c-5 0-9-3-9-9s3-10 9-10h218c4 0 9 4 9 10s-5 9-9 9z m0 212h-218c-5 0-9-4-9-9s3-10 9-10h218c4 0 9 4 9 10s-5 9-9 9z m77 425h-57v82c0 5-4 9-10 9h-43v71c0 5-4 9-10 9h-59v79c0 5-3 10-9 10s-7-5-7-10v-81h-59c-5 0-9-3-9-9s3-10 9-10h127v-60h-180c-4 0-9-3-9-9v-82h-58c-5 0-9-4-9-10v-636c0-5 3-10 9-10s10 4 10 10v629h356v-628c0-5 4-10 9-10s10 4 10 10v636c-1 5-6 10-11 10z m-297 73h222v-73h-222v73z m-152-284h-207c-5 0-10-3-10-9v-426c0-5 4-10 10-10s9 4 9 10v417h199c5 0 9 4 9 10s-5 8-10 8z m-19-232c-5 0-9-3-9-9v-73c0-5 3-9 9-9s9 3 9 9v73c-1 6-4 9-9 9z m-87 0c-5 0-9-3-9-9v-73c0-5 3-9 9-9s9 3 9 9v73c-1 6-4 9-9 9z m87 145c-5 0-9-3-9-9v-73c0-5 3-10 9-10s9 4 9 10v73c-1 6-4 9-9 9z m-87 0c-5 0-9-3-9-9v-73c0-5 3-10 9-10s9 4 9 10v73c-1 6-4 9-9 9z m87-289c-5 0-9-4-9-10v-49c0-5 3-10 9-10s9 4 9 10v49c-1 5-4 10-9 10z m-87 0c-5 0-9-4-9-10v-49c0-5 3-10 9-10s9 4 9 10v49c-1 5-4 10-9 10z" horiz-adv-x="1000" />

<glyph glyph-name="hotel-schedule" unicode="&#xe811;" d="M509 584c5 0 10 4 10 10v48h87v-48c0-5 3-10 9-10s10 4 10 10v114c0 4-4 9-10 9s-9-3-9-9v-49h-87v49c0 4-4 9-10 9s-9-3-9-9v-114c1-6 5-10 9-10z m402-403c-3 16-31 163-99 163-60 0-93-119-100-165-7-42 7-69 20-85 16-20 43-33 70-37l0-56h-188v73h61v17h-227v-17h61v-73h-125v502c0 14 11 27 27 27h304c14 0 27-12 27-27v-140h18v140c0 25-20 45-45 45h-306c-24 0-44-20-44-45v-502h-221v322c0 14 11 27 27 27h151v18h-151c-25 0-45-20-45-45v-321h-31c-4 0-9-4-9-10s3-9 9-9h759c5 0 10 3 10 9s-4 10-10 10h-33l0 56c28 1 54 13 71 33 13 14 27 43 19 90z m-384-107h70v-73h-70v73z m351 28c-13-15-34-25-58-27l0 56 37 27c3 3 4 9 2 12-2 4-8 5-12 2l-27-18 0 89c0 5-3 9-9 9s-10-3-10-9l0-89-24 18c-4 3-10 3-12-2-3-3-3-9 2-12l38-27 0-55c-23 2-44 13-58 29-15 19-21 44-16 72 9 60 42 150 82 150 41 0 72-90 82-149 4-31-1-59-17-76z" horiz-adv-x="1000" />

<glyph glyph-name="hot-tub" unicode="&#xe812;" d="M852 292c-5 0-10-3-10-9v-54c0-93-75-168-168-168h-349c-93 0-168 75-168 168v54c0 5-4 9-10 9s-9-3-9-9v-54c0-66 34-124 86-157l-32-65c-3-5 0-10 3-12 2-2 3-2 4-2 3 0 6 3 8 5l32 66c25-13 54-20 83-20h350c30 0 59 7 83 20l32-66c1-3 5-5 8-5 2 0 3 0 4 2 5 2 6 7 3 12l-28 67c52 33 86 90 86 156v54c0 5-3 8-8 8z m23 137h-16v98c0 38-28 70-64 70s-63-32-63-70c0-5 3-10 9-10s10 4 10 10c0 29 20 52 46 52s45-23 45-52v-98h-343c-4 36-35 36-50 36h-118c-25 0-44-20-44-43v-212c0-5 4-9 10-9h167c4 0 9 3 9 9v124h405c24 0 43 20 43 44v6c-1 25-21 45-46 45z m-394 0h-10v16c6-2 9-7 10-16z m-150 20h118c2 0 3 0 4 0v-160h-148v133c0 15 12 27 26 27z m-26-230v52h149v-52h-149z m597 159c0-15-11-27-25-27h-406v60h404c14 0 26-12 26-27v-6z m-654-36c0 5-3 9-9 9h-115c-15 0-26 12-26 27v6c0 15 11 27 26 27h115c5 0 9 4 9 10s-3 9-9 9h-115c-25 0-44-20-44-45v-6c0-24 20-44 44-44h115c5-1 9 2 9 7z m329 157c29 0 52 24 52 53s-23 53-52 53-53-23-53-53 23-53 53-53z m0 89c20 0 35-16 35-36s-15-35-35-35-36 15-36 35 16 36 36 36z m-60 82c9 0 17 8 17 18s-8 17-17 17-18-8-18-17 7-18 18-18z" horiz-adv-x="1000" />

<glyph glyph-name="infants" unicode="&#xe813;" d="M462 577c16-1 31 4 43 14 12 11 17 26 17 41 0 5-3 10-9 10s-7-4-7-10c0-10-5-21-13-28-8-7-18-10-28-9-12 1-21 6-28 15-10 11-13 27-11 45 5 39 36 64 73 61 21-2 40-12 54-28 14-18 21-41 18-67-7-66-62-114-119-109-5 2-10-3-10-8 0-5 4-9 9-9 3 0 7 0 11 0 64 0 119 53 127 123 4 31-3 59-21 80-16 20-39 33-66 36-47 4-87-29-93-77-2-22 3-42 16-58 8-12 22-20 37-22z m38-432c-49 0-89-40-89-89 0-49 40-90 89-90s89 41 89 90c0 49-40 89-89 89z m0-161c-40 0-72 33-72 72 0 40 33 72 72 72 40 0 72-33 72-72 0-40-32-72-72-72z m331 432c-11 0-20-2-30-7-27 78-89 140-172 173-4 2-9 0-11-5-3-5 0-9 4-12 82-33 142-95 165-171 0-2 1-3 1-3 1-2 4-3 6-4 3 0 5 0 7 1 8 7 19 9 30 9 30 0 55-29 55-67 0-36-25-67-55-67-9 0-17 2-25 7 0 0-1 1-2 1-3 1-5 0-7-1-3-1-4-3-5-6-18-80-78-150-159-187-5-2-6-7-5-12 1-3 5-4 9-4 1 0 2 0 3 1 82 37 145 107 167 188 7-2 15-5 24-5 40 0 73 38 73 85-2 48-33 86-73 86z m-459 166c-83-33-145-97-172-173-9 5-19 7-29 7-40 0-73-38-73-85 0-47 33-84 73-84 8 0 15 1 23 4 23-81 84-150 167-188 1 0 3-1 4-1 3 0 7 2 8 5 2 4 0 9-5 11-81 37-141 107-159 187 0 3-2 5-4 6-3 1-5 1-7 1-1 0-1 0-3-1-7-4-15-7-24-7-31 0-56 30-56 67 0 37 25 67 56 67 10 0 20-3 29-9 2-1 5-1 7-1 2 0 5 2 6 4 0 0 0 2 1 2 24 76 85 140 165 171 5 3 7 7 5 12-3 5-7 7-12 5z m48-288c0 9-8 17-18 17-9 0-17-8-17-17s8-18 17-18c10 0 18 8 18 18z m179 18c-10 0-18-8-18-17s8-18 18-18 18 8 18 18-9 17-18 17z" horiz-adv-x="1000" />

<glyph glyph-name="king-size-bed" unicode="&#xe814;" d="M166 409c-5 0-9 3-9 9v132c0 51 41 92 91 92h503c50 0 91-41 91-92v-133c0-5-3-9-9-9s-9 3-9 9v133c0 41-33 74-75 74h-500c-41 0-74-33-74-74v-133c0-5-4-8-9-8z m714-351c-5 0-9 4-9 10v235c0 28-23 51-51 51h-641c-28 0-51-23-51-51v-235c0-5-3-10-9-10s-7 4-7 9v235c0 37 30 68 68 68h641c38 0 68-31 68-68v-235c-1-5-4-9-9-9z m-428 351c-5 0-10 3-10 9v90c0 15-11 27-27 27h-109c-15 0-27-12-27-27v-90c0-4-4-9-10-9s-9 3-9 9v90c0 24 20 44 45 44h110c25 0 45-20 45-44v-90c0-6-3-9-8-9z m279 0c-5 0-10 3-10 9v90c0 15-12 27-27 27h-110c-16 0-27-12-27-27v-90c0-4-4-9-10-9s-9 3-9 9v90c0 24 20 44 44 44h112c25 0 45-20 45-44v-90c0-6-4-9-8-9z m144-254h-750c-5 0-10 3-10 9s4 10 10 10h752c4 0 9-4 9-10s-6-9-11-9z" horiz-adv-x="1000" />

<glyph glyph-name="kitchen" unicode="&#xe815;" d="M668 103h-343c-33 0-59 26-59 59v88h-137c-20 0-40 8-54 22-14 15-22 35-22 55l0 15c0 42 34 76 76 76h137v87c0 33 26 59 59 59h142c5 0 10-3 10-9s-4-10-10-10h-142c-23 0-41-18-41-41v-96c0-5-4-10-10-10h-145c-31 0-58-26-58-59l0-15c0-15 6-30 17-41 11-11 26-18 41-18h145c5 0 10-3 10-9v-97c0-22 18-41 41-41h344c5 0 10-3 10-9s-5-6-11-6z m220 0h-51c-5 0-10 4-10 9s4 10 10 10h51c23 0 41 19 41 41v342c0 23-18 42-41 42h-224c-5 0-10 3-10 9s4 9 10 9h224c33 0 59-26 59-58v-344c0-33-27-60-59-60z m-301 119c-1 0-2 0-3 1-3 1-4 4-5 6-112 345-47 488-45 495 1 3 3 4 5 5 2 1 5 1 7 0 73-38 96-101 98-104l122-315c1-5 0-9-5-12l-170-74c-2-2-3-2-4-2z m-40 485c-12-36-45-179 46-464l154 67-120 307c0 1-20 54-80 90z m257-735c-40 0-78 24-79 25-4 2-5 6-4 11l19 59-78 195c-2 5 0 9 5 12 5 2 10 0 12-5l79-199c1-2 1-3 0-6l-18-54c14-7 51-25 81-17 13 4 23 11 28 22 5 10 6 22 0 35l-100 252c-2 5 0 9 5 12 5 2 10 0 12-5l100-252c7-18 6-34-1-49-8-16-23-26-39-31-7-4-15-5-22-5z m-655 344c-9 0-17 8-17 18s8 17 17 17 18-8 18-17-8-18-18-18z m0 19c-1 0-1 0 0 0l0 0z" horiz-adv-x="1000" />

<glyph glyph-name="late-saving" unicode="&#xe816;" d="M898 468c-3 4-7 6-12 3l-77-36c-20 42-51 81-92 110-4 3-10 3-12-2-3-4-3-9 2-12 70-49 108-122 108-201 0-96-62-187-160-231-3-1-4-4-4-8v-84c0-9-7-16-16-16h-51c-9 0-16 7-16 16v58c0 3-1 5-2 7-2 2-5 3-7 3-10-1-20-1-30-1h-45c-10 0-20 0-29 1-2 0-4-1-7-3-2-1-2-3-2-7v-58c0-9-7-16-15-16h-52c-8 0-15 7-15 16v84c0 4-3 6-5 8 0 0-2 2-2 2 0 0 0 0 0 0-60 27-109 73-136 129-1 4-4 5-8 5 0 0 0 0 0 0l-55 0c-26 89-47 190-38 206 52-18 99-2 104 2 4 2 7 6 7 6 0 0 0 1 1 1 23 41 60 75 103 100 2 0 3 2 3 2 3 2 3 4 3 6l-1 96c47-7 86-66 86-66 1-3 5-4 7-4l1 0c0 0 1 0 1 0 18 3 33 4 47 4h32c5 0 10 3 10 9s-4 10-10 10h-32c-14 0-29-2-45-4-12 16-56 71-108 71-2 0-4-2-5-3-2-1-3-3-3-6l1-100c-44-26-81-61-105-103 0 0-2-1-3-1 0 0-42-17-89 0-6 2-13 1-17-4-23-22 16-169 34-230 2-4 5-6 9-6 0 0 0 0 0 0l56 0c30-57 78-104 139-132v-79c0-18 14-33 33-33h52c17 0 33 14 33 33v49c7 0 14-1 21-1h44c8 0 15 0 22 1v-49c0-18 14-33 33-33h51c18 0 33 14 33 33v79c101 47 166 142 166 245 0 30-6 60-16 88l76 37c4-1 5 5 4 9z m-261 90c45 0 83 38 83 84s-38 83-83 83-84-37-84-83 38-84 84-84z m0 150c36 0 65-30 65-66s-29-66-65-66-66 29-66 66 30 66 66 66z m-159-206c1-5 6-7 10-7 1 0 66 15 119-7 1 0 2-1 4-1 3 0 7 2 8 5 2 5 0 10-5 12-59 25-127 8-130 8-5-1-7-5-6-10z m-153-48c0-10 8-18 17-18 10 0 18 8 18 18s-8 17-18 17c-9 0-17-8-17-17z" horiz-adv-x="1000" />

<glyph glyph-name="list" unicode="&#xe817;" d="M907 735h-814c-15 0-27-12-27-27v-140c0-16 12-27 27-27h815c16 0 27 11 27 27v140c-1 15-13 27-28 27z m0-287h-814c-15 0-27-12-27-27v-140c0-16 12-27 27-27h815c16 0 27 11 27 27v140c-1 14-13 27-28 27z m0-289h-814c-15 0-27-11-27-27v-140c0-15 12-27 27-27h815c16 0 27 12 27 27v140c-1 16-13 27-28 27z" horiz-adv-x="1000" />

<glyph glyph-name="payment" unicode="&#xe818;" d="M724 690h-271c-38 0-68-31-68-68v-166c-1 0-1-1-3-1-38-34-168-146-173-171-2-14-1-97 6-265 0-4 4-8 9-8 0 0 0 0 0 0 4 0 8 5 8 10-6 161-8 249-6 261 3 14 82 87 158 152v-160c0-2 0-2 0-3l-60-64c-4-4-4-10 0-13 3-4 9-4 13 0l136 147c20 21 52 26 69 10 18-15 19-48 3-72l-170-255c-2-3-1-9 3-12 1-1 3-1 4-1 3 0 6 1 7 4l172 254c21 32 19 74-6 95-24 21-67 17-93-12l-58-63v333c0 27 22 50 50 50h215v-573h-172c-5 0-10-3-10-9s4-9 10-9h227c37 0 68 30 68 68v473c0 37-31 68-68 68z m50-541c0-27-22-51-50-51h-39v574h39c27 0 50-22 50-50v-473z" horiz-adv-x="1000" />

<glyph glyph-name="peoples" unicode="&#xe819;" d="M500 576c40 0 72 33 72 72s-32 73-72 73c-40 0-72-33-72-72s32-73 72-73z m0 127c31 0 54-25 54-54s-25-54-54-54c-31 0-54 24-54 54s23 54 54 54z m57-172h-112c-30 0-56-23-58-53l-19-189c-2-26 23-48 49-59l5-242c0-5 5-9 10-9 5 0 8 5 8 10l-6 248c0 4-2 7-6 8-22 9-44 25-42 44l19 189c2 20 20 37 40 37h112c20 0 38-17 40-37l18-189c3-19-21-35-42-44-4-1-6-4-6-8l-6-248c0-5 4-10 8-10 0 0 0 0 0 0 5 0 9 4 10 9l6 242c27 12 52 33 48 59l-19 189c-3 30-29 53-57 53z m158-19c37 0 65 30 65 65s-29 65-65 65-64-30-64-65 28-65 64-65z m0 113c26 0 47-21 47-47s-21-47-47-47-47 21-47 47 20 47 47 47z m103-201c-3 26-26 47-53 47h-94c-5 0-10-3-10-9s4-10 10-10h94c17 0 33-14 35-31l17-169c1-15-18-30-38-37-4-1-6-5-6-8l-6-221c0-4 4-9 8-9 0 0 0 0 0 0 5 0 9 4 10 8l6 218c23 11 46 29 43 53l-16 168z m-533 219c-37 0-65-29-65-65s29-64 65-64 64 29 64 64-28 65-64 65z m0-113c-26 0-47 21-47 47s21 47 47 47 47-21 47-47-21-47-47-47z m44-59h-94c-26 0-49-21-53-47l-16-168c-2-24 19-44 43-53l5-214c0-5 4-8 8-8 0 0 0 0 0 0 5 0 9 4 9 9l-6 220c0 4-3 7-6 8-20 7-39 23-38 38l19 166c1 17 18 32 35 32h94c5 0 10 3 10 9s-5 8-10 8z" horiz-adv-x="1000" />

<glyph glyph-name="protect" unicode="&#xe81a;" d="M729 201c-64-38-149-59-241-59-80 0-157 16-219 47-4 2-9 0-11-4-3-4 0-9 3-11 64-32 144-50 227-50 94 0 184 23 250 61 4 3 6 9 3 12-2 5-7 6-12 4z m-388 374c46 35 101 55 159 55 58 0 113-19 159-55 1-1 3-3 6-3 2 0 4 2 7 4 3 3 2 9-1 13-50 39-109 59-170 59-62 0-121-20-169-59-4-4-5-8-1-13 1-4 7-5 10-1z m323-144c-2 4-4 6-7 6l-104 13-45 94c-2 5-7 6-11 5-5-2-6-7-5-12l46-99c1-2 3-4 7-4l89-12-66-63c-2-2-3-4-2-8l18-89-79 43c-3 2-6 2-8 0l-79-43 17 89c0 4 0 6-2 8l-68 64 88 12c5 1 8 4 7 9-1 5-5 8-9 7l-106-14c-4 0-6-2-7-6-1-3 0-7 2-9l77-72-20-102c-2-4 1-7 3-9 2-2 6-2 9 0l92 51 92-51c1-1 2-1 5-1 2 0 3 0 4 1 3 3 5 6 4 9l-20 102 76 72c2 3 3 7 2 9z m137 13c-1 3-2 4-2 5-47 88 39 194 40 194 2 4 2 8 0 12l-130 132c-3 3-9 3-12 0-95-91-185-3-189 2-1 1-3 2-6 2 0 0 0 0 0 0-2 0-4-1-5-2-4-4-93-93-189-2-3 3-9 3-13 0l-129-132c-4-4-4-8 0-12 1-1 87-106 40-194-1-1-1-4-2-5-82-143-72-239-49-294 30-72 99-122 206-152 77-21 108-34 136-87 1-3 4-5 8-5 3 0 6 3 8 5 27 53 59 66 135 87 107 30 177 80 206 152 18 55 28 151-53 294z m32-287c-27-66-93-114-194-141-68-19-108-32-139-81-31 49-71 62-139 81-101 28-167 75-194 141-21 52-30 141 47 279 1 2 3 5 4 6 46 87-18 182-37 208l119 120c89-80 177-18 200 2 24-20 111-82 200-2l119-120c-19-26-82-121-37-208 2-1 3-4 4-6 78-138 68-227 47-279z" horiz-adv-x="1000" />

<glyph glyph-name="room" unicode="&#xe81b;" d="M733 525c2 0 4 2 6 3l76 57c4 4 5 9 2 13-4 4-9 5-13 1l-77-57c-3-4-5-8-1-13 2-2 5-4 7-4z m164-47c-3 5-8 6-12 5l-87-40c-5-2-6-7-5-12 1-3 5-4 8-4 1 0 3 0 4 1l87 40c5 1 7 7 5 10z m-636 49c1-2 4-3 6-3 2 0 5 1 7 4 4 3 3 9-1 13l-76 57c-4 4-10 3-13-1-4-3-3-9 1-13l76-57z m-63-102c3 0 7 3 8 5 2 5 0 9-5 12l-87 40c-5 2-9 0-12-5-2-5 0-9 5-12l87-40c1 0 3 0 4 0z m614-282c-40 14-41 54-41 55 0 5-4 10-10 10h-523c-5 0-9-4-10-9 0-1-1-41-41-55-3-1-6-5-6-8v-66c0-5 4-9 10-9h618c5 0 10 3 10 9v66c-1 2-4 6-7 7z m-612-65v47h105c4 0 9 4 9 10s-3 9-9 9h-84c16 14 23 33 25 47h508c3-14 10-33 25-47h-377c-4 0-9-3-9-9s4-10 9-10h398v-47h-600z m33 201h-24c-4 0-9-3-9-9s4-9 9-9h582c4 0 9 3 9 9s-3 9-9 9h-24c-16 19-22 38-25 50-22 132-100 201-233 203v55c0 4-3 9-9 9s-9-4-9-9v-55c-133-2-212-71-233-203-3-13-9-31-25-50z m267 236c131 0 204-63 225-190 2-11 7-28 20-46h-490c13 18 18 35 20 46 22 129 94 190 225 190z m-152-140c1-1 3-1 4-1 3 0 6 2 8 4 19 38 48 58 93 66 5 1 8 6 7 11-1 4-6 8-11 7-50-10-84-34-105-75-2-5 0-10 4-12z m94 204c5 0 10 4 10 10v16c0 10 12 18 25 18h49c13 0 25-8 25-18v-16c0-5 3-10 9-10s9 4 9 10v16c0 20-18 36-42 36h-49c-24 0-43-17-43-36v-16c-2-6 3-10 7-10z" horiz-adv-x="1000" />

<glyph glyph-name="security" unicode="&#xe81c;" d="M909 322c-4 0-9-4-9-10v-91h-165c2 15-2 31-10 44-3 4-6 10-10 12 0 0-9 12-8 26 2 13 12 25 30 35l81 50c22 14 28 49 13 74l-20 33 37 22c5 2 6 8 4 12l-77 133c-23 39-76 52-116 27v0l-573-350c-2-2-4-4-4-8 0-3 2-6 4-7l115-73c1-1 4-1 5-1 1 0 3 0 5 1l157 97c45 27 119-43 119-44 2-2 7-3 11-1l300 182 20-33c10-18 4-42-7-49l-82-48c-22-14-35-30-37-48-4-24 12-40 12-40 2-3 4-6 7-10 7-10 9-25 7-38-3-1-5-4-5-7 0-1 0-2 1-4-5-12-13-23-25-30-12-8-28-10-43-7-15 4-27 12-35 25-2 2-3 5-5 9 0 2-11 23-34 30-18 6-38 1-60-12l-79-48c-18-11-41-6-53 13l-51 84c-2 5-8 6-11 3-5-3-6-8-3-12l46-74-40-24-46 76c-2 4-8 6-11 2s-6-8-3-12l51-82c1-2 5-5 7-5 1 0 3 0 5 1l47 30c10-14 27-23 44-23 10 0 20 3 30 9l79 48c17 10 33 14 45 10 16-4 23-20 23-20 2-4 3-8 6-11 8-14 21-24 35-30 2-30 38-55 79-55h189v-94c0-5 4-10 10-10s7 4 7 9v304c0 5-4 10-9 10z m-415 0c-19 16-87 70-135 41l-153-94-99 62 561 343c0 0 0 0 0 0 32 20 73 10 92-22l73-123-339-207z m218-203c-30 0-54 15-60 33 16-2 34 2 48 11 15 9 27 24 32 40h168v-84h-188z m-35 111c0 9-9 18-18 18s-18-9-18-18 8-18 18-18 18 7 18 18z" horiz-adv-x="1000" />

<glyph glyph-name="sun-umbrella" unicode="&#xe81d;" d="M285 369c3-2 7-1 10 1 100 92 244 46 245 46 0 0 0 0 0 0 1 0 1 0 2 0 0 0 0 0 0 0 2 0 3 0 3 1 0 0 0 0 1 0 1 0 2 1 2 2 0 0 0 0 0 0 0 2 58 70 177 37 0 0 1 0 1 0 0 0 1 0 1 0 1 0 1 0 2 0 0 0 0 0 2 0 0 0 0 0 0 0 1 0 1 1 1 1 0 0 1 0 1 1 0 0 1 1 1 1 0 0 0 2 1 2 0 0 0 0 0 1 0 0 0 1 0 1 0 1 0 1 0 2 0 0 0 2 0 2 0 0 0 1 0 1-47 127-202 202-360 173-158-31-274-152-274-290 0-3 3-6 5-8 1-1 2-1 3-1 3 0 4 0 5 1 97 68 167 27 171 26z m428 106c-91 19-145-16-166-36-33 122-94 169-135 186 130 13 254-48 301-150z m-340 144c13-2 112-21 156-183-40 9-145 26-232-42-15 163 61 216 76 225z m-38-9c-29-32-67-98-56-220-26 9-86 22-160-22 8 107 96 204 216 242z m443-520l120 248c2 5 0 10-4 12-5 2-9 0-12-3l-70-145h-243c-4 0-9-4-9-10s4-9 9-9h73l-48-81h-382c-5 0-10-4-10-10s5-7 10-7h97l-55-92c-2-4-1-9 4-11 1-1 3-1 4-1 4 0 6 1 7 4l60 100h422l60-100c1-2 4-4 7-4 1 0 3 0 4 1 5 2 6 8 4 11l-53 92c2 2 4 3 5 5z m-13 13h-150l49 81h141l-40-81z m-348 280c-5-1-9-6-8-11l39-223c1-5 5-7 9-7 0 0 1 0 1 0 4 1 8 6 7 10l-39 224c0 5-5 8-9 7z m58-335c-4-1-8-6-7-11l10-51c1-4 4-7 8-7 0 0 1 0 1 0 5 2 8 6 7 11l-9 51c0 4-5 7-10 7z m-110 626c0 0 1 0 1 0 5 1 8 5 7 10l-5 30c-1 4-6 8-10 7-5-2-9-6-7-11l4-29c3-4 6-7 10-7z" horiz-adv-x="1000" />

<glyph glyph-name="support" unicode="&#xe81e;" d="M800 183c0 0 0 0 0 0l-112 75c-3 4-27 20-56 4l-64-35c-15 12-69 56-101 90-34 32-78 85-90 100l34 62c16 31 0 53-4 57l-74 114c-15 21-33 20-38 19-22-1-71-47-86-60-32-30-29-57-28-62 13-93 81-205 193-313 3-3 4-4 5-5 1-1 3-4 7-7 112-113 216-177 311-190 1 0 4-1 8-1 12 0 32 4 54 28 14 15 59 64 60 86 1 5 2 24-19 38z m1-34c0 0 0-1 0-1 0-11-29-47-55-76-24-27-44-22-45-22 0 0-1 0-1 0-91 13-192 75-301 185-4 3-6 6-7 7-1 1-3 2-5 5-108 105-174 214-187 304 0 1-5 21 22 45 29 26 65 55 76 55 0 0 1 0 1 0 0 0 1 0 1 0 4 0 12-1 19-12l75-112c0 0 0-2 1-2 0 0 13-15 2-37l-38-69c-1-3-1-7 1-9 2-2 55-69 95-106 38-41 104-94 107-96 3-3 7-3 10-1l68 37c21 12 37-1 38-1 0 0 1 0 1-1l113-75c12-8 9-18 9-18z m-127 246l18 0c-1 42-19 81-48 110-30 30-69 46-111 47l0-17c36-1 72-16 98-41 27-27 42-63 43-99z m86 4l18 2c-3 62-29 121-73 166-45 44-105 69-167 71l0-17c59-2 113-25 155-66 40-43 65-97 67-156z" horiz-adv-x="1000" />

<glyph glyph-name="tours" unicode="&#xe81f;" d="M908 517c-57 64-117 95-181 95-36 0-69-11-95-24 28 34 75 67 105 83 9 6 14 17 11 27-2 11-13 18-23 18-73-1-143-25-144-26-50-19-74-56-74-112-34 24-70 34-106 34-61 0-119-33-174-97-7-8-8-20-2-28 6-9 16-13 27-11 2 1 70 20 139 20 23 0 42 0 58-4-52-4-90-30-117-81-13-26-43-89-37-119 4-15 16-22 26-22 14 0 23 9 39 28 29 33 82 93 157 100 0-61-8-177-40-267-3-6-3-13 1-19 8-16 29-36 82-36 34 0 75 5 80 31 4 20 5 44 5 70 106-18 195-74 241-154-58-9-325-48-761 2-14 2-19 5-19 5 5 22 173 93 334 132l-7 17c-104-24-351-103-347-149 1-18 26-20 34-21 166-19 308-26 424-26 229 0 354 25 356 26 2 0 5 2 6 5 1 2 1 5 0 8-47 90-145 155-262 174-3 75-16 158-22 191-1 3-2 11-3 20 0 0 0 1 0 1 80 7 120-72 138-105 8-16 14-28 30-28 11 0 22 7 25 21 6 28-19 102-31 133 0 1-1 2-1 3-21 40-49 56-75 64 12 1 24 2 39 2 70 0 138-19 142-20 11-2 21 1 27 11 2 8 2 20-5 28z m-13-20c-1-2-4-3-7-2-3 1-74 20-147 20-32 0-59-4-80-11l-30-9 30-8c4-2 7-2 11-3 30-7 65-15 92-63 16-45 34-105 29-124-1-7-6-7-7-7-5 0-7 2-15 19-18 34-58 115-143 115-7 0-15-1-22-2l-9-1 2-10c0-1 1-6 2-10 1-9 4-17 5-20 2-14 7-37 11-64-15-9-31-14-50-10l-2-18c4 0 9-1 13-1 15 0 29 3 41 10 2-16 3-34 5-50-24-10-46-14-66-12l-3-18c5-1 10-1 14-1 18 0 36 4 55 12 1-18 2-35 2-53-34-13-65-15-84-13l-1-18c5 0 10-1 16-1 21 0 45 5 69 13 0-18-1-33-4-47-1-7-23-15-62-15-25 0-55 4-67 26-1 1-1 3 0 4 35 97 42 224 41 284l0 9-9 0c-87-2-147-69-179-106-14-16-19-21-26-21-1 0-7 0-8 7-4 20 16 71 35 107 27 50 64 72 119 72 2 0 6 0 8 0 6 0 13 0 17 0l31-2-25 19c-30 21-65 21-106 21-72 0-142-20-144-20-2-1-6 0-7 2-1 2-1 6 0 8 52 62 106 92 161 92 38 0 74-14 111-42l16-13-2 20c-6 59 14 94 61 113 1 0 67 23 138 24 2 0 6-2 6-4 1-3 0-6-4-7-1-1-108-61-132-125l-10-28 24 17c26 19 68 43 117 43 58 0 114-31 168-90 3-2 3-6 1-8z" horiz-adv-x="1000" />

<glyph glyph-name="adults" unicode="&#xe820;" d="M859 27c-210 52-226 90-226 92l0 0c0 0 0 65 0 95 0 1 0 2 0 2 46 54 91 167 101 252l0 0c13 113-25 206-103 256-77 48-180 48-257 0-45-28-76-70-93-122-1-1-1-3-1-4-12-39-15-82-9-129 9-84 55-195 101-252 0-1 0-1 0-2 0-30 0-94 0-94v-2c0 0-15-37-227-91-5-1-7-6-6-11 1-3 5-7 8-7 1 0 1 0 2 0 105 27 165 49 198 68l1-1 140-88-74-63-90 73c-4 4-10 3-13-1s-3-9 1-13l95-77c1-2 4-3 6-3s4 1 6 3l83 69 84-69c1-2 3-3 6-3s3 1 6 3l95 77c4 4 5 8 1 13-3 4-8 5-13 1l-90-73-74 63 140 88 1 1c33-19 93-41 197-68 2 0 2 0 3 0 3 0 7 2 8 7 0 4-2 8-7 10z m-566 562c220 10 234 89 235 93 1 5-2 9-7 9-4 1-9-2-9-7 0-1-15-67-212-77 20 54 57 85 82 102 36 22 78 34 119 34 41 0 84-12 119-34 37-24 93-77 98-181-72 3-123 95-123 95-1 4-4 5-8 5s-6-3-8-6c-48-117-204-97-205-97-5 2-9-2-9-7-1-4 2-9 7-9 0 0 12-1 29-1 48 0 143 11 186 93 19-29 66-89 130-91 0-13-2-26-3-40l0 0c-9-82-53-191-97-242-30-36-72-56-117-56l0 0c-46 0-88 20-116 56-44 53-89 162-98 242-6 47-2 86 7 119z m207-591l-140 89c22 15 26 27 26 31s0 49 0 79c31-28 72-45 114-45 0 0 0 0 1 0 43 0 83 17 114 45 0-30 0-74 0-79 0-6 3-16 26-31l-141-89z m-40 251c13-6 26-8 40-8 13 0 27 2 40 8 5 2 7 7 5 12-3 4-7 7-12 4-21-9-45-9-66 0-5 3-9 0-12-4-2-5 0-10 5-12z" horiz-adv-x="1000" />
</font>
</defs>
</svg>
